<?xml version="1.0" standalone="no"?>
<!DOCTYPE svg PUBLIC "-//W3C//DTD SVG 1.1//EN" "http://www.w3.org/Graphics/SVG/1.1/DTD/svg11.dtd" >
<svg xmlns="http://www.w3.org/2000/svg">
<metadata>
This is a custom SVG webfont generated by Font Squirrel.
Copyright   : COM4tCommunicate by Four Typeface  CHideki Katayama All Rights Reserved FFF
</metadata>
<defs>
<font id="COM4tSansMediumRegular" horiz-adv-x="981" >
<font-face units-per-em="2048" ascent="1638" descent="-410" />
<missing-glyph horiz-adv-x="630" />
<glyph unicode=" "  horiz-adv-x="630" />
<glyph unicode="&#x09;" horiz-adv-x="630" />
<glyph unicode="&#xa0;" horiz-adv-x="630" />
<glyph unicode="!" horiz-adv-x="570" d="M0 1611h262l-56 -1177h-149zM0 103q0 54 38.5 92.5t92.5 38.5t92.5 -38.5t38.5 -92.5t-38.5 -92.5t-92.5 -38.5t-92.5 38.5t-38.5 92.5z" />
<glyph unicode="&#x22;" horiz-adv-x="788" d="M0 1088v550h201l-116 -550h-85zM327 1088v550h201l-117 -550h-84z" />
<glyph unicode="#" horiz-adv-x="1302" d="M0 532v127h221l40 306h-237v128h254l61 464h177l-61 -464h269l61 464h177l-61 -464h200v-128h-217l-40 -306h232v-127h-249l-70 -532h-177l70 532h-269l-69 -532h-177l69 532h-204zM398 659h269l40 306h-269z" />
<glyph unicode="$" horiz-adv-x="1078" d="M-29 196l66 206q133 -105 338 -109v471q-177 97 -256 171q-131 121 -131 267q0 28 4 60q14 118 126 196q106 74 257 88v92h120v-91q72 -11 131 -22q141 -28 191 -56l-46 -200q-95 83 -276 100v-428q213 -123 296 -233q70 -93 70 -211v-31q-8 -139 -107 -233.5 t-259 -120.5v-112h-120v104q-245 3 -404 92zM227 1202q0 -103 148 -194v358q-127 -23 -145 -128q-3 -19 -3 -36zM495 309q118 42 130 148q2 15 2 28q0 111 -132 206v-382z" />
<glyph unicode="%" horiz-adv-x="1853" d="M-32 1225q0 171 112 285q111 113 275.5 112.5t275.5 -112.5q112 -114 112 -285t-111.5 -284.5t-276 -113.5t-275.5 113q-112 114 -112 285zM168 1227q0 -106 49 -170q51 -66 138 -66q88 0 139 66q49 64 49 170q0 105 -49 168q-50 65 -138 65t-139 -65q-49 -63 -49 -168z M250 0l937 1611h186l-939 -1611h-184zM887 387q0 171 112 285q111 113 275.5 112.5t275.5 -112.5q112 -114 112 -285t-111.5 -284.5t-276 -113.5t-276 113.5t-111.5 284.5zM1088 389q0 -106 48 -170q50 -66 139 -66q88 0 138 66q48 64 48 170q0 105 -48 168q-50 65 -138 65 t-139 -65q-48 -63 -48 -168z" />
<glyph unicode="&#x26;" horiz-adv-x="1523" d="M0 421q0 149 67 257q73 117 253 237q-140 204 -140 357q0 160 104 261q106 102 279 102q171 0 269 -98q93 -92 93 -240q0 -217 -331 -424l76 -88l279 -324q119 187 132 424l201 -74q-33 -268 -202 -499l284 -312h-275l-141 164q-207 -189 -444 -189q-227 0 -372 143 q-132 130 -132 303zM237 441q0 -110 80 -188q78 -76 184 -75q171 0 321 133l-359 420l-34 41q-102 -71 -145 -141q-47 -77 -47 -190zM388 1275q0 -115 98 -260q231 139 230 265q0 73 -34 122q-42 62 -123 62q-90 0 -136 -67q-35 -52 -35 -122z" />
<glyph unicode="'" horiz-adv-x="392" d="M0 1088v550h201l-116 -550h-85z" />
<glyph unicode="(" horiz-adv-x="892" d="M57 613.5q0 657.5 487 1023.5l89 -119q-135 -106 -234 -339q-113 -266 -113.5 -565t113.5 -566q99 -233 234 -338l-89 -120q-487 366 -487 1023.5z" />
<glyph unicode=")" horiz-adv-x="907" d="M-14 -290q135 106 234 338q113 266 113 565t-113 566q-99 233 -234 339l89 119q486 -366 486 -1023.5t-486 -1023.5z" />
<glyph unicode="*" horiz-adv-x="1028" d="M0 1355l89 154l269 -212l-49 341h178l-49 -339l271 214l89 -155l-319 -127l321 -128l-89 -155l-269 213l49 -341h-178l49 339l-271 -214l-89 155l319 127z" />
<glyph unicode="+" horiz-adv-x="1265" d="M-15 475v144h468v475h157v-475h468v-144h-468v-474h-157v474h-468z" />
<glyph unicode="," horiz-adv-x="470" d="M0 131q0 54 38.5 92.5t92.5 38.5t93 -39q56 -56 56 -154q0 -107 -62 -216q-63 -111 -153 -157l-47 82q148 92 155 229q-21 -7 -43 -7q-54 0 -92 38.5t-38 92.5z" />
<glyph unicode="-" horiz-adv-x="1237" d="M0 475v144h1036v-144h-1036z" />
<glyph unicode="." horiz-adv-x="453" d="M0 131q0 54 38.5 92.5t92.5 38.5t92.5 -38.5t38.5 -92.5t-38.5 -92.5t-92.5 -38.5t-92.5 38.5t-38.5 92.5z" />
<glyph unicode="/" horiz-adv-x="841" d="M-78 0l603 1611h173l-603 -1611h-173z" />
<glyph unicode="0" horiz-adv-x="1313" d="M-32 806.5q0 370.5 151 593.5q156 230 425.5 230t426.5 -230q151 -223 151 -593.5t-151 -593.5q-156 -230 -426 -230t-426 230q-151 223 -151 593.5zM209 806q0 -298 91 -464q89 -163 245 -163q157 0 245 163q90 166 90 464.5t-90 464.5q-88 164 -245 164 q-156 0 -245 -164q-91 -167 -91 -465z" />
<glyph unicode="1" horiz-adv-x="659" d="M-32 1255v212l314 145h117v-1612h-222v1346z" />
<glyph unicode="2" horiz-adv-x="1181" d="M0 1508q77 61 193 97q104 32 193 33q236 0 372 -102q139 -104 139 -293q0 -190 -122 -399q-77 -132 -453 -650h599v-194l-919 -1v103q409 548 524 744q118 204 118 371q0 105 -73 165q-68 56 -177 56q-174 0 -320 -144z" />
<glyph unicode="3" horiz-adv-x="1161" d="M-80 145l73 238q155 -204 355 -204q156 0 238 86q77 80 77 220q0 135 -91 211q-86 72 -227 71q-14 0 -49.5 -1.5t-35.5 -4.5l-2 195q166 18 255 95q85 75 85 193q0 83 -64 137q-71 59 -200 59q-160 0 -316 -153l-65 211q153 139 403 140q214 0 350 -107 q135 -106 135 -271q0 -121 -69 -223t-181 -151q143 -37 226 -146q85 -113 84 -278q0 -217 -150 -353q-148 -134 -379 -134q-120 0 -247.5 48t-204.5 122z" />
<glyph unicode="4" horiz-adv-x="1142" d="M-64 351v142l677 1119h178v-1067h209v-194h-209v-351h-214v351h-641zM160 545h417v715z" />
<glyph unicode="5" horiz-adv-x="1097" d="M-43 153l87 212q124 -198 321 -198q154 0 239 95q81 91 80 246q0 169 -94 255q-82 74 -215 75q-142 0 -245 -118l-133 47l84 844v1h722v-194h-541l-46 -426q98 37 189 37q237 0 373 -142q132 -138 131 -368q0 -243 -150 -395q-148 -150 -383 -149q-112 0 -229 48 q-123 50 -190 130z" />
<glyph unicode="6" horiz-adv-x="1193" d="M-32 806q0 375 139 594q147 230 414 230q225 0 389 -116l-111 -201q-78 69 -131 94q-59 27 -140 27q-144 0 -231 -140q-88 -142 -101 -400q123 195 353 195q187 0 317 -140q136 -145 135 -369q0 -283 -145 -444q-138 -153 -359 -153q-267 0 -402 222q-127 209 -127 601z M213 537q0 -152 77 -253q80 -105 205 -106q126 0 206 106q77 101 77 253q0 153 -77 254q-80 105 -206 106q-126 0 -205 -106q-77 -101 -77 -254z" />
<glyph unicode="7" horiz-adv-x="964" d="M-64 1418v194h917v-164q-211 -305 -334.5 -691t-127.5 -756h-258q29 358 147 725q123 383 318 692h-662z" />
<glyph unicode="8" horiz-adv-x="1240" d="M-32 477q0 285 272 410q-203 112 -202 323q0 186 138 305q134 115 332.5 115t332.5 -115q138 -119 138 -305q0 -208 -204 -323q274 -125 274 -410q0 -222 -167 -363q-156 -132 -374 -131q-218 0 -373 131q-167 141 -167 363zM218 485q0 -153 91 -237q80 -74 199 -75 q120 0 201 75q91 85 91 237t-91 236q-80 74 -201 74q-120 0 -199 -74q-91 -84 -91 -236zM269 1207q0 -111 71 -179q67 -65 168 -65q102 0 170 65q70 68 70 179t-70 179q-67 65 -170 65q-101 0 -168 -65q-71 -68 -71 -179z" />
<glyph unicode="9" horiz-adv-x="1200" d="M-32 1082q0 245 159 402q148 146 354 146q529 0 529 -824q0 -389 -143 -604q-147 -219 -418 -219q-230 0 -400 140l103 200q111 -144 289 -144q145 0 232 141q88 143 101 404q-106 -167 -329 -167q-203 0 -340 150t-137 375zM209 1094q0 -150 72 -244q76 -99 202 -99 t202 99q73 95 73 244t-73 244q-76 99 -202 99t-202 -99q-72 -95 -72 -244z" />
<glyph unicode=":" horiz-adv-x="453" d="M0 131q0 54 38.5 92.5t92.5 38.5t92.5 -38.5t38.5 -92.5t-38.5 -92.5t-92.5 -38.5t-92.5 38.5t-38.5 92.5zM0 970q0 54 38.5 92.5t92.5 38.5t92.5 -38.5t38.5 -92.5t-38.5 -92.5t-92.5 -38.5t-92.5 38.5t-38.5 92.5z" />
<glyph unicode=";" horiz-adv-x="470" d="M0 131q0 54 38.5 92.5t92.5 38.5t93 -39q56 -56 56 -154q0 -107 -62 -216q-63 -111 -153 -157l-47 82q148 92 155 229q-21 -7 -43 -7q-54 0 -92 38.5t-38 92.5zM0 970q0 54 38.5 92.5t92.5 38.5t92.5 -38.5t38.5 -92.5t-38.5 -92.5t-92.5 -38.5t-92.5 38.5t-38.5 92.5z " />
<glyph unicode="&#x3c;" horiz-adv-x="1243" d="M0 548l983 571v-173l-688 -398l688 -399v-173z" />
<glyph unicode="=" horiz-adv-x="1300" d="M-14 198v144h1084v-144h-1084zM-14 747v144h1084v-144h-1084z" />
<glyph unicode="&#x3e;" horiz-adv-x="1127" d="M0 -24v173l688 399l-688 398v173l983 -571z" />
<glyph unicode="?" horiz-adv-x="1114" d="M0 1493q158 136 389 136t357 -93q124 -92 124 -261q0 -156 -106 -283l-200 -217q-107 -144 -106 -341h-192q0 230 94 381q11 19 172 203q93 107 93 231q0 97 -71 146q-61 42 -157 42q-175 0 -330 -163zM238 103q0 54 38.5 92.5t92.5 38.5t92 -38.5t38 -92.5t-38 -92.5 t-92 -38.5t-92.5 38.5t-38.5 92.5z" />
<glyph unicode="@" horiz-adv-x="1733" d="M0 788q0 339 228 575q230 238 566 238q322 0 531 -191q206 -190 206 -480q0 -236 -142 -382q-144 -148 -380 -148q-29 0 -59 2l-63 97v1q-99 -111 -256 -111q-118 0 -190 80q-74 81 -74 216q0 55 13 117q40 179 155 287q118 111 281 111q150 0 204 -105l104 96h110 l-156 -632h10q116 0 202 108t86 249q0 248 -164 398q-160 145 -418 145q-271 0 -460 -220q-175 -204 -176 -451q0 -253 165 -446q184 -216 477 -217q304 0 522 203l97 -115q-251 -238 -619 -238q-348 0 -576 238q-224 233 -224 575zM574 719q0 -160 123 -160q193 0 245 238 q12 52 12 93q0 144 -141 144q-83 0 -149 -74q-61 -67 -82 -163q-8 -40 -8 -78z" />
<glyph unicode="A" horiz-adv-x="1406" d="M-95 0l609 1611h141l609 -1611h-233l-177 497h-539l-177 -497h-233zM381 683h407l-203 570z" />
<glyph unicode="B" horiz-adv-x="1184" d="M0 0v1610h378q209 0 347 -89q162 -105 163 -305q0 -268 -215 -356q310 -77 310 -399q0 -461 -595 -461h-388zM220 186h112q239 0 335 68t96 236q0 269 -341 268h-202v-572zM220 936h183q256 0 256 246q0 235 -334 235h-105v-481z" />
<glyph unicode="C" horiz-adv-x="1423" d="M-35 806q0 364 229 600q217 224 523 224q279 0 511 -176l-113 -203q-166 174 -398 173q-229 0 -365 -161q-141 -166 -141 -457q0 -290 152 -462q146 -164 377 -164q115 0 225 63q100 57 159 142l134 -164q-83 -109 -232 -175q-146 -64 -301 -64q-307 0 -527 224 q-233 237 -233 600z" />
<glyph unicode="D" horiz-adv-x="1495" d="M0 0v1609h472q322 0 531 -142q292 -200 292 -648q0 -452 -286 -664q-212 -157 -530 -157zM220 194h201q645 0 645 618v7q-2 366 -241 507q-156 92 -444 91h-161v-1223z" />
<glyph unicode="E" horiz-adv-x="1016" d="M0 0v1612h797v-194h-575v-458h518v-194h-518v-572h593v-194h-815z" />
<glyph unicode="F" horiz-adv-x="986" d="M0 0v1612h797v-194h-575v-458h518v-194h-518v-766h-222z" />
<glyph unicode="G" horiz-adv-x="1466" d="M-35 806q0 365 224 600q214 224 520 224q267 0 487 -176l-113 -203q-162 182 -374 181q-227 0 -361 -164q-137 -168 -137 -462q0 -293 140 -462q136 -164 364 -164q176 0 302 98v509h217v-595q-82 -98 -233 -155q-144 -55 -300 -55q-304 0 -515 224q-221 235 -221 600z " />
<glyph unicode="H" horiz-adv-x="1441" d="M0 0v1610h222v-650h737v651h222v-1609h-222v764h-737v-766h-222z" />
<glyph unicode="I" horiz-adv-x="482" d="M0 2v1609h222v-1609h-222z" />
<glyph unicode="J" horiz-adv-x="505" d="M-203 -218q226 29 227 242v1587h221v-1611q0 -184 -109 -291q-107 -105 -296 -116z" />
<glyph unicode="K" horiz-adv-x="1325" d="M0 2v1609h222v-651h186l508 651h250l-585 -752l597 -859h-267l-518 766h-171v-764h-222z" />
<glyph unicode="L" horiz-adv-x="972" d="M0 0v1612h222v-1418h577v-194h-799z" />
<glyph unicode="M" horiz-adv-x="1833" d="M-12 0l69 1604h176l549 -1155l548 1155h176l70 -1604h-222l-40 1131l-508 -1075h-48l-509 1075l-39 -1131h-222z" />
<glyph unicode="N" horiz-adv-x="1517" d="M0 0v1607h124l911 -1117v1121h222v-1611h-101l-934 1163v-1163h-222z" />
<glyph unicode="O" horiz-adv-x="1783" d="M-35 806.5q0 361.5 229 593.5q227 230 575 230t575 -230q229 -232 229 -593.5t-229 -593.5q-227 -230 -575 -230q-349 0 -575 230q-229 232 -229 593.5zM206 806.5q0 -292.5 163 -464.5q155 -163 400.5 -163t399.5 163q162 171 162 464t-162 465q-154 164 -399.5 164 t-400.5 -164q-163 -172 -163 -464.5z" />
<glyph unicode="P" horiz-adv-x="1155" d="M0 0v1611h465q240 0 374 -138q122 -126 122 -323q0 -198 -122 -325q-135 -141 -374 -141h-245v-684h-220zM220 879h182q322 0 323 269q0 268 -323 268h-182v-537z" />
<glyph unicode="Q" horiz-adv-x="1798" d="M-35 806q0 362 229 594q227 230 576 230q348 0 575 -230q229 -232 228 -594q0 -247 -113 -441q-110 -189 -302 -290q228 -64 430 -258l-182 -171q-158 174 -300 252q-154 85 -336 85q-349 0 -576 230q-229 231 -229 593zM207 806q0 -292 163 -464q155 -163 400 -163 t400 163q162 171 161.5 464t-161.5 465q-154 164 -399.5 164t-400.5 -164q-163 -172 -163 -465z" />
<glyph unicode="R" horiz-adv-x="1216" d="M0 0v1611h441q241 0 374 -130q122 -120 121 -315q0 -307 -278 -401l420 -765h-246l-390 732h-1h-221v-732h-220zM220 927h158q175 0 249 56q73 54 73 181q0 129 -73 188q-77 64 -249 64h-158v-489z" />
<glyph unicode="S" horiz-adv-x="1064" d="M-29 126l86 218q154 -165 336 -165q88 0 151 60q62 59 72 146q2 15 1 29q0 174 -263 349q-202 135 -280 246q-65 92 -64 207q0 34 5 84q16 149 135 239q115 87 281 87q74 -3 139 -19q156 -40 242 -139l-87 -205q-116 171 -289 171q-179 0 -199 -152q-2 -11 -1 -22 q0 -129 192 -265q248 -175 343 -309q81 -115 81 -255q0 -17 -1 -36q-9 -185 -136 -298q-128 -114 -330 -114q-231 0 -414 143z" />
<glyph unicode="T" horiz-adv-x="1146" d="M-43 1418v194h1006v-194h-390v-1418h-222v1418h-394z" />
<glyph unicode="U" horiz-adv-x="1437" d="M0 519v1092h222v-984q0 -224 67 -322q83 -122 300 -122t299 122q67 98 67 322v984h222v-1092q0 -276 -174 -418q-154 -126 -414.5 -126t-414.5 126q-174 142 -174 418z" />
<glyph unicode="V" horiz-adv-x="1389" d="M-95 1613h239l432 -1249l433 1249h238l-600 -1613h-142z" />
<glyph unicode="W" horiz-adv-x="1989" d="M-95 1611h240l287 -1187l324 1187h206l325 -1187l286 1187h240l-417 -1612h-184l-353 1243l-353 -1243h-184z" />
<glyph unicode="X" horiz-adv-x="1240" d="M-173 1l510 849l-463 762h254l355 -583l356 583h253l-462 -762l509 -849h-254l-402 671l-401 -671h-255z" />
<glyph unicode="Y" horiz-adv-x="1280" d="M-115 1611h247l393 -687l393 687h247l-530 -915v-696h-221v696z" />
<glyph unicode="Z" horiz-adv-x="1135" d="M-66 1v105l702 1311h-631v194h933v-81l-716 -1336h725v-194z" />
<glyph unicode="[" horiz-adv-x="769" d="M0 -410v2048h538v-143h-325v-1761h325v-144h-538z" />
<glyph unicode="\" horiz-adv-x="833" d="M-87 1611h173l604 -1611h-174z" />
<glyph unicode="]" horiz-adv-x="884" d="M0 -266h325v1761h-325v143h538v-2048h-538v144z" />
<glyph unicode="^" horiz-adv-x="1099" d="M0 939l333 672h275l333 -672h-166l-305 543l-304 -543h-166z" />
<glyph unicode="_" horiz-adv-x="1311" d="M0 -167h1094v-144h-1094v144z" />
<glyph unicode="`" horiz-adv-x="631" d="M0 1611h266l163 -244h-117z" />
<glyph unicode="a" d="M-72 344q0 168 107 266q106 97 288 97h228q-3 118 -72 178q-57 49 -146 48q-144 0 -254 -91l-66 192q49 29 157 52q100 21 163 21q184 0 300 -89q131 -100 131 -286v-732h-88l-104 120q-107 -134 -277 -134q-156 0 -260 100q-107 101 -107 258zM142 353q0 -79 53 -131 q55 -54 141 -53q92 0 149 52q66 60 66 175v142h-191q-102 0 -160 -49t-58 -136z" />
<glyph unicode="b" horiz-adv-x="1099" d="M0 0v1638h213v-680q102 146 294 146q205 0 320 -151q112 -147 112 -400q0 -255 -128 -415q-123 -153 -306 -154q-191 0 -298 132l-100 -116h-107zM214 546q0 -379 249 -379t249 379t-249 379t-249 -379z" />
<glyph unicode="c" horiz-adv-x="994" d="M-57 545q0 252 159 410q151 149 373 149q198 0 355 -91l-64 -213q-99 129 -283 129q-132 0 -223 -109.5t-91 -274.5q0 -182 94 -284q88 -96 228 -96q171 0 280 148l79 -188q-149 -139 -367 -139q-233 0 -383 149q-157 156 -157 410z" />
<glyph unicode="d" horiz-adv-x="1144" d="M-26 553q0 252 117 400q118 151 323 151q181 0 286 -136v670h213v-1638h-107l-104 120q-103 -136 -294 -136q-183 0 -305 154q-129 160 -129 415zM201 546q0 -379 249 -379t249 379t-249 379t-249 -379z" />
<glyph unicode="e" horiz-adv-x="1124" d="M-26 545q0 271 155 422q141 138 368 137q183 0 318 -121q150 -135 150 -355q0 -49 -8 -100h-756q5 -178 95 -271q82 -84 218 -84q181 0 281 128l111 -173q-69 -64 -175 -103t-209 -39q-229 0 -381 140q-167 153 -167 419zM216 696h512q-1 110 -79 173q-69 56 -166 56 q-216 0 -267 -229z" />
<glyph unicode="f" horiz-adv-x="650" d="M0 0v1309q0 329 411 329q27 0 56 -1l24 -180q-59 8 -102 7q-92 0 -133 -38q-42 -39 -43 -133v-201h264v-178h-264v-914h-213z" />
<glyph unicode="g" horiz-adv-x="1144" d="M-26 553q0 252 117 400q118 151 323 151q181 0 286 -136l106 122h107v-995q0 -226 -136 -365q-134 -138 -346 -138q-58 0 -149 18q-97 20 -140 42l47 206q107 -78 282 -79q219 0 228 337q-104 -132 -291 -132q-183 0 -305 154q-129 160 -129 415zM201 546 q0 -379 249 -379t249 379t-249 379t-249 -379z" />
<glyph unicode="h" horiz-adv-x="1129" d="M0 0v1638h213v-657q122 137 318 137q169 0 266 -96q101 -100 102 -284v-738h-214v738q0 104 -60 159q-54 47 -142 47q-105 0 -179 -62q-91 -77 -91 -226v-656h-213z" />
<glyph unicode="i" horiz-adv-x="493" d="M0 1508q0 54 38.5 92t92.5 38t92.5 -38t38.5 -92t-38.5 -93t-92.5 -39t-92.5 39t-38.5 93zM24 0v1093h213v-1093h-213z" />
<glyph unicode="j" horiz-adv-x="471" d="M-175 -218q108 2 146 56q32 47 32 167v1090h213v-1090q0 -190 -71 -289q-88 -121 -297 -126zM-21 1508q0 54 38.5 92t92.5 38t92 -38t38 -92t-38 -92.5t-92 -38.5t-92.5 38.5t-38.5 92.5z" />
<glyph unicode="k" horiz-adv-x="1058" d="M0 0v1638h213v-966h104l350 421h242l-424 -502l430 -590h-252l-347 492h-103v-493h-213z" />
<glyph unicode="l" horiz-adv-x="444" d="M0 0v1638h213v-1638h-213z" />
<glyph unicode="m" horiz-adv-x="1636" d="M0 0v1093h117l73 -123q81 148 275 148q236 0 313 -196l-3 25q56 159 286 171q162 0 252 -96q92 -99 92 -284v-738h-213v738q0 206 -174 206q-93 0 -148 -62q-60 -68 -61 -195v-687h-213v738q0 206 -174 206q-94 0 -148 -62q-60 -68 -61 -195v-687h-213z" />
<glyph unicode="n" horiz-adv-x="1129" d="M0 0v1093h117l79 -133q119 158 335 158q169 0 266 -96q101 -100 101 -284v-738h-213v738q0 104 -61 159q-53 47 -141 47q-105 0 -179 -62q-91 -77 -91 -226v-656h-213z" />
<glyph unicode="o" horiz-adv-x="1166" d="M-26 548q0 257 149 411q143 148 367 148q225 0 368 -148q148 -154 148 -411.5t-148 -410.5q-142 -148 -368 -148q-225 0 -367 148q-149 154 -149 411zM201 548q0 -184 85 -286q78 -95 204.5 -95t204.5 95q84 102 84 286t-84 286q-78 94 -205 94.5t-204 -94.5 q-85 -102 -85 -286z" />
<glyph unicode="p" horiz-adv-x="1099" d="M0 -408v1501h107l100 -116q107 132 298 132q183 0 306 -154q129 -160 128 -415q0 -253 -112 -400q-115 -151 -320 -151q-191 0 -294 146v-543h-213zM214 547q0 -379 249 -379t249 379t-249 379t-249 -379z" />
<glyph unicode="q" horiz-adv-x="1144" d="M-26 540q0 256 129 415q123 154 305 154q191 0 294 -136l104 120h107v-1501h-213v532q-104 -136 -286 -135q-206 0 -323 151q-117 149 -117 400zM201 547q0 -379 249 -379t249 379t-249 379t-249 -379z" />
<glyph unicode="r" horiz-adv-x="710" d="M0 0v1093h117l68 -114q78 139 237 139q110 0 161 -46l-34 -208q-49 72 -160 72q-176 0 -176 -289v-647h-213z" />
<glyph unicode="s" horiz-adv-x="800" d="M-64 102l103 179q95 -122 245 -122q128 0 147 85q5 20 4 36q0 57 -70 109l-236 162q-167 119 -167 270q0 34 8 70q49 216 344 216q84 0 180.5 -36t135.5 -83l-98 -173q-81 119 -226 118q-103 0 -120 -69q-3 -12 -3 -25q0 -69 87 -130l211 -138q171 -115 171 -278 q0 -23 -3 -47q-17 -118 -121 -190q-101 -70 -246 -70q-210 0 -346 116z" />
<glyph unicode="t" horiz-adv-x="620" d="M0 312v987h213v-206h241v-178h-241v-540q0 -216 144 -216q35 0 86 11l20 -186q-72 -11 -132 -11q-331 0 -331 339z" />
<glyph unicode="u" horiz-adv-x="1115" d="M-14 355v738h213v-738q0 -104 65 -158q56 -48 146 -48q107 0 174 54q87 70 87 217v673h213v-1093h-117l-69 116q-129 -142 -328 -141q-171 0 -275 96q-109 101 -109 284z" />
<glyph unicode="v" horiz-adv-x="1083" d="M-64 1093h216l278 -905l278 905h216l-355 -1093h-278z" />
<glyph unicode="w" horiz-adv-x="1665" d="M-48 1093h216l196 -893l219 893h275l219 -893l197 893h215l-273 -1093h-277l-218 921l-219 -921h-277z" />
<glyph unicode="x" horiz-adv-x="1051" d="M-64 0l351 561l-334 532h232l229 -393l229 393h233l-335 -532l351 -561h-233l-245 421l-246 -421h-232z" />
<glyph unicode="y" horiz-adv-x="1087" d="M-64 1092h225l267 -764l278 765h206l-546 -1501h-206l162 444z" />
<glyph unicode="z" horiz-adv-x="945" d="M-32 1v105l483 793h-442v194h720v-81l-485 -818h494v-194z" />
<glyph unicode="{" horiz-adv-x="890" d="M0 541v145q218 51 218 243q0 25 -4 52q-11 85 -11 159q0 265 149 386q110 90 325 111l26 -140q-159 -37 -217 -90q-73 -68 -73 -223q0 -75 15 -180q8 -52 8 -97q0 -215 -212 -293q212 -78 212 -294q0 -44 -8 -96q-15 -106 -15 -181q0 -154 73 -222q57 -53 217 -91 l-26 -140q-215 21 -325 111q-149 121 -149 387q0 74 11 159q4 27 4 51q0 192 -218 243z" />
<glyph unicode="|" horiz-adv-x="417" d="M0 -410v2048h157v-2048h-157z" />
<glyph unicode="}" horiz-adv-x="962" d="M0 -270q159 38 216 91q73 68 74 222q0 75 -16 181q-8 52 -8 97q0 215 212 293q-212 78 -212 293q0 44 8 97q15 106 16 180q0 154 -74 223q-57 53 -216 90l26 140q215 -21 325 -111q149 -121 149 -386q0 -74 -11 -159q-4 -27 -4 -52q0 -192 218 -243v-145 q-218 -51 -218 -243q0 -24 4 -51q11 -85 11 -159q0 -265 -149 -387q-110 -89 -325 -111z" />
<glyph unicode="~" horiz-adv-x="1036" d="M0 809q89 149 220 153h10q100 0 199 -61q126 -76 199 -76h4q88 3 160 96l71 -123q-89 -149 -220 -153h-12q-105 0 -197 60q-118 76 -198 77h-5q-88 -3 -160 -96z" />
<glyph unicode="&#xa5;" horiz-adv-x="1266" d="M-115 1598h247l393 -686l393 686h247l-356 -616h259v-128h-333l-99 -171v-81h432v-127h-432v-475h-222v475h-432v127h432v81l-99 171h-333v128h259z" />
<glyph unicode="&#xaa;" d="M-72 344q0 168 107 266q106 97 288 97h228q-3 118 -72 178q-57 49 -146 48q-144 0 -254 -91l-66 192q49 29 157 52q100 21 163 21q184 0 300 -89q131 -100 131 -286v-732h-88l-104 120q-107 -134 -277 -134q-156 0 -260 100q-107 101 -107 258zM142 353q0 -79 53 -131 q55 -54 141 -53q92 0 149 52q66 60 66 175v142h-191q-102 0 -160 -49t-58 -136z" />
<glyph unicode="&#xad;" horiz-adv-x="1237" d="M0 475v144h1036v-144h-1036z" />
<glyph unicode="&#xb2;" horiz-adv-x="1181" d="M0 1508q77 61 193 97q104 32 193 33q236 0 372 -102q139 -104 139 -293q0 -190 -122 -399q-77 -132 -453 -650h599v-194l-919 -1v103q409 548 524 744q118 204 118 371q0 105 -73 165q-68 56 -177 56q-174 0 -320 -144z" />
<glyph unicode="&#xb3;" horiz-adv-x="1161" d="M-80 145l73 238q155 -204 355 -204q156 0 238 86q77 80 77 220q0 135 -91 211q-86 72 -227 71q-14 0 -49.5 -1.5t-35.5 -4.5l-2 195q166 18 255 95q85 75 85 193q0 83 -64 137q-71 59 -200 59q-160 0 -316 -153l-65 211q153 139 403 140q214 0 350 -107 q135 -106 135 -271q0 -121 -69 -223t-181 -151q143 -37 226 -146q85 -113 84 -278q0 -217 -150 -353q-148 -134 -379 -134q-120 0 -247.5 48t-204.5 122z" />
<glyph unicode="&#xb9;" horiz-adv-x="659" d="M-32 1255v212l314 145h117v-1612h-222v1346z" />
<glyph unicode="&#xba;" horiz-adv-x="1166" d="M-26 548q0 257 149 411q143 148 367 148q225 0 368 -148q148 -154 148 -411.5t-148 -410.5q-142 -148 -368 -148q-225 0 -367 148q-149 154 -149 411zM201 548q0 -184 85 -286q78 -95 204.5 -95t204.5 95q84 102 84 286t-84 286q-78 94 -205 94.5t-204 -94.5 q-85 -102 -85 -286z" />
<glyph unicode="&#xc0;" horiz-adv-x="1406" d="M-95 0l609 1611h141l609 -1611h-233l-177 497h-539l-177 -497h-233zM214 1997h266l163 -244h-117zM381 683h407l-203 570z" />
<glyph unicode="&#xc2;" horiz-adv-x="1406" d="M-95 0l609 1611h141l609 -1611h-233l-177 497h-539l-177 -497h-233zM114 1753l334 672h274l333 -672h-166l-304 543l-305 -543h-166zM381 683h407l-203 570z" />
<glyph unicode="&#xc3;" horiz-adv-x="1406" d="M-95 0l609 1611h141l609 -1611h-233l-177 497h-539l-177 -497h-233zM153 1916q89 149 221 153q5 0 9 1q100 0 199 -61q126 -76 199 -76h4q88 3 160 96l71 -123q-89 -149 -220 -153h-11q-105 0 -198 60q-118 76 -198 77q-3 0 -5 -1q-88 -3 -160 -95zM381 683h407l-203 570 z" />
<glyph unicode="&#xc8;" horiz-adv-x="1016" d="M0 0v1612h797v-194h-575v-458h518v-194h-518v-572h593v-194h-815zM28 1997h266l163 -244h-117z" />
<glyph unicode="&#xca;" horiz-adv-x="1016" d="M-72 1753l333 672h274l334 -672h-166l-305 543l-304 -543h-166zM0 0v1612h797v-194h-575v-458h518v-194h-518v-572h593v-194h-815z" />
<glyph unicode="&#xcc;" horiz-adv-x="482" d="M-259 1997h266l163 -244h-117zM0 2v1609h222v-1609h-222z" />
<glyph unicode="&#xce;" horiz-adv-x="482" d="M-359 1753l333 672h274l334 -672h-166l-305 543l-305 -543h-165zM0 2v1609h222v-1609h-222z" />
<glyph unicode="&#xd1;" horiz-adv-x="1517" d="M0 0v1607h124l911 -1117v1121h222v-1611h-101l-934 1163v-1163h-222zM715 1916q89 149 220 153q5 0 9 1q100 0 199 -61q126 -76 200 -76h4q88 3 160 96l71 -123q-89 -149 -221 -153h-11q-105 0 -197 60q-118 76 -198 77q-3 0 -6 -1q-88 -3 -159 -95z" />
<glyph unicode="&#xd2;" horiz-adv-x="1783" d="M-35 806.5q0 361.5 229 593.5q227 230 575 230t575 -230q229 -232 229 -593.5t-229 -593.5q-227 -230 -575 -230q-349 0 -575 230q-229 232 -229 593.5zM206 806.5q0 -292.5 163 -464.5q155 -163 400.5 -163t399.5 163q162 171 162 464t-162 465q-154 164 -399.5 164 t-400.5 -164q-163 -172 -163 -464.5zM399 1997h266l163 -244h-117z" />
<glyph unicode="&#xd4;" horiz-adv-x="1783" d="M-35 806.5q0 361.5 229 593.5q227 230 575 230t575 -230q229 -232 229 -593.5t-229 -593.5q-227 -230 -575 -230q-349 0 -575 230q-229 232 -229 593.5zM206 806.5q0 -292.5 163 -464.5q155 -163 400.5 -163t399.5 163q162 171 162 464t-162 465q-154 164 -399.5 164 t-400.5 -164q-163 -172 -163 -464.5zM299 1753l333 672h274l334 -672h-166l-305 543l-305 -543h-165z" />
<glyph unicode="&#xd5;" horiz-adv-x="1783" d="M-35 806.5q0 361.5 229 593.5q227 230 575 230t575 -230q229 -232 229 -593.5t-229 -593.5q-227 -230 -575 -230q-349 0 -575 230q-229 232 -229 593.5zM206 806.5q0 -292.5 163 -464.5q155 -163 400.5 -163t399.5 163q162 171 162 464t-162 465q-154 164 -399.5 164 t-400.5 -164q-163 -172 -163 -464.5zM338 1916q89 149 220 153q5 0 10 1q100 0 199 -61q126 -76 199 -76h4q88 3 160 96l71 -123q-89 -149 -221 -153h-11q-105 0 -197 60q-118 76 -198 77q-3 0 -5 -1q-88 -3 -160 -95z" />
<glyph unicode="&#xd9;" horiz-adv-x="1437" d="M0 519v1092h222v-984q0 -224 67 -322q83 -122 300 -122t299 122q67 98 67 322v984h222v-1092q0 -276 -174 -418q-154 -126 -414.5 -126t-414.5 126q-174 142 -174 418zM218 1997h266l163 -244h-117z" />
<glyph unicode="&#xdb;" horiz-adv-x="1437" d="M0 519v1092h222v-984q0 -224 67 -322q83 -122 300 -122t299 122q67 98 67 322v984h222v-1092q0 -276 -174 -418q-154 -126 -414.5 -126t-414.5 126q-174 142 -174 418zM118 1753l333 672h275l333 -672h-166l-305 543l-304 -543h-166z" />
<glyph unicode="&#xe0;" d="M-72 344q0 168 107 266q106 97 288 97h228q-3 118 -72 178q-57 49 -146 48q-144 0 -254 -91l-66 192q49 29 157 52q100 21 163 21q184 0 300 -89q131 -100 131 -286v-732h-88l-104 120q-107 -134 -277 -134q-156 0 -260 100q-107 101 -107 258zM-37 1474h266l163 -244 h-117zM142 353q0 -79 53 -131q55 -54 141 -53q92 0 149 52q66 60 66 175v142h-191q-102 0 -160 -49t-58 -136z" />
<glyph unicode="&#xe2;" d="M-137 1230l333 672h274l334 -672h-166l-305 543l-304 -543h-166zM-72 344q0 168 107 266q106 97 288 97h228q-3 118 -72 178q-57 49 -146 48q-144 0 -254 -91l-66 192q49 29 157 52q100 21 163 21q184 0 300 -89q131 -100 131 -286v-732h-88l-104 120 q-107 -134 -277 -134q-156 0 -260 100q-107 101 -107 258zM142 353q0 -79 53 -131q55 -54 141 -53q92 0 149 52q66 60 66 175v142h-191q-102 0 -160 -49t-58 -136z" />
<glyph unicode="&#xe3;" d="M-98 1393q89 149 220 153h10q100 0 199 -60q126 -76 199 -76h4q88 3 160 96l71 -123q-89 -149 -220 -153h-12q-105 0 -197 60q-118 76 -198 76h-5q-88 -3 -160 -95zM-72 344q0 168 107 266q106 97 288 97h228q-3 118 -72 178q-57 49 -146 48q-144 0 -254 -91l-66 192 q49 29 157 52q100 21 163 21q184 0 300 -89q131 -100 131 -286v-732h-88l-104 120q-107 -134 -277 -134q-156 0 -260 100q-107 101 -107 258zM142 353q0 -79 53 -131q55 -54 141 -53q92 0 149 52q66 60 66 175v142h-191q-102 0 -160 -49t-58 -136z" />
<glyph unicode="&#xe8;" horiz-adv-x="1124" d="M-26 545q0 271 155 422q141 138 368 137q183 0 318 -121q150 -135 150 -355q0 -49 -8 -100h-756q5 -178 95 -271q82 -84 218 -84q181 0 281 128l111 -173q-69 -64 -175 -103t-209 -39q-229 0 -381 140q-167 153 -167 419zM127 1474h266l163 -244h-117zM216 696h512 q-1 110 -79 173q-69 56 -166 56q-216 0 -267 -229z" />
<glyph unicode="&#xea;" horiz-adv-x="1124" d="M-26 545q0 271 155 422q141 138 368 137q183 0 318 -121q150 -135 150 -355q0 -49 -8 -100h-756q5 -178 95 -271q82 -84 218 -84q181 0 281 128l111 -173q-69 -64 -175 -103t-209 -39q-229 0 -381 140q-167 153 -167 419zM27 1230l333 672h274l334 -672h-166l-305 543 l-305 -543h-165zM216 696h512q-1 110 -79 173q-69 56 -166 56q-216 0 -267 -229z" />
<glyph unicode="&#xec;" horiz-adv-x="493" d="M-240 2005h266l163 -244h-117zM0 1508q0 54 38.5 92t92.5 38t92.5 -38t38.5 -92t-38.5 -93t-92.5 -39t-92.5 39t-38.5 93zM24 0v1093h213v-1093h-213z" />
<glyph unicode="&#xee;" horiz-adv-x="493" d="M-340 1761l334 672h274l333 -672h-165l-305 543l-305 -543h-166zM0 1508q0 54 38.5 92t92.5 38t92.5 -38t38.5 -92t-38.5 -93t-92.5 -39t-92.5 39t-38.5 93zM24 0v1093h213v-1093h-213z" />
<glyph unicode="&#xf1;" horiz-adv-x="1129" d="M0 0v1093h117l79 -133q119 158 335 158q169 0 266 -96q101 -100 101 -284v-738h-213v738q0 104 -61 159q-53 47 -141 47q-105 0 -179 -62q-91 -77 -91 -226v-656h-213zM18 1404q89 149 220 153h10q100 0 199 -60q126 -76 199 -76h4q88 3 160 96l71 -123 q-89 -149 -220 -153h-12q-105 0 -197 60q-118 76 -198 76h-5q-88 -3 -160 -96z" />
<glyph unicode="&#xf2;" horiz-adv-x="1166" d="M-26 548q0 257 149 411q143 148 367 148q225 0 368 -148q148 -154 148 -411.5t-148 -410.5q-142 -148 -368 -148q-225 0 -367 148q-149 154 -149 411zM119 1474h267l163 -244h-118zM201 548q0 -184 85 -286q78 -95 204.5 -95t204.5 95q84 102 84 286t-84 286 q-78 94 -205 94.5t-204 -94.5q-85 -102 -85 -286z" />
<glyph unicode="&#xf4;" horiz-adv-x="1166" d="M-26 548q0 257 149 411q143 148 367 148q225 0 368 -148q148 -154 148 -411.5t-148 -410.5q-142 -148 -368 -148q-225 0 -367 148q-149 154 -149 411zM20 1230l333 672h274l333 -672h-165l-305 543l-305 -543h-165zM201 548q0 -184 85 -286q78 -95 204.5 -95t204.5 95 q84 102 84 286t-84 286q-78 94 -205 94.5t-204 -94.5q-85 -102 -85 -286z" />
<glyph unicode="&#xf5;" horiz-adv-x="1166" d="M-26 548q0 257 149 411q143 148 367 148q225 0 368 -148q148 -154 148 -411.5t-148 -410.5q-142 -148 -368 -148q-225 0 -367 148q-149 154 -149 411zM59 1393q89 149 220 153h9q100 0 199 -60q126 -76 200 -76h4q88 3 159 96l71 -123q-89 -149 -220 -153h-11 q-105 0 -197 60q-118 76 -198 76h-6q-88 -3 -159 -95zM201 548q0 -184 85 -286q78 -95 204.5 -95t204.5 95q84 102 84 286t-84 286q-78 94 -205 94.5t-204 -94.5q-85 -102 -85 -286z" />
<glyph unicode="&#xf9;" horiz-adv-x="1115" d="M-14 355v738h213v-738q0 -104 65 -158q56 -48 146 -48q107 0 174 54q87 70 87 217v673h213v-1093h-117l-69 116q-129 -142 -328 -141q-171 0 -275 96q-109 101 -109 284zM65 1474h266l163 -244h-117z" />
<glyph unicode="&#xfb;" horiz-adv-x="1115" d="M-35 1230l333 672h274l334 -672h-166l-305 543l-305 -543h-165zM-14 355v738h213v-738q0 -104 65 -158q56 -48 146 -48q107 0 174 54q87 70 87 217v673h213v-1093h-117l-69 116q-129 -142 -328 -141q-171 0 -275 96q-109 101 -109 284z" />
<glyph unicode="&#x152;" horiz-adv-x="2799" d="M-35 806.5q0 361.5 229 593.5q227 230 575 230t575 -230q229 -232 229 -593.5t-229 -593.5q-227 -230 -575 -230q-349 0 -575 230q-229 232 -229 593.5zM206 806.5q0 -292.5 163 -464.5q155 -163 400.5 -163t399.5 163q162 171 162 464t-162 465q-154 164 -399.5 164 t-400.5 -164q-163 -172 -163 -464.5zM1783 0v1612h797v-194h-574v-458h518v-194h-518v-572h593v-194h-816z" />
<glyph unicode="&#x153;" horiz-adv-x="2290" d="M-26 548q0 257 149 411q143 148 367 148q225 0 368 -148q148 -154 148 -411.5t-148 -410.5q-142 -148 -368 -148q-225 0 -367 148q-149 154 -149 411zM201 548q0 -184 85 -286q78 -95 204.5 -95t204.5 95q84 102 84 286t-84 286q-78 94 -205 94.5t-204 -94.5 q-85 -102 -85 -286zM1140 545q0 271 155 422q141 138 368 137q183 0 318 -121q150 -135 150 -355q0 -49 -8 -100h-756q5 -178 95 -271q82 -84 218 -84q181 0 281 128l111 -173q-69 -64 -175 -103t-209 -39q-229 0 -381 140q-167 153 -167 419zM1382 696h512q-1 110 -79 173 q-69 56 -166 56q-216 0 -267 -229z" />
<glyph unicode="&#x2c6;" horiz-adv-x="1099" d="M0 939l333 672h275l333 -672h-166l-305 543l-304 -543h-166z" />
<glyph unicode="&#x2dc;" horiz-adv-x="630" d="M-431 286q89 149 220 153h9q100 0 199 -60q126 -76 200 -76h4q88 3 159 96l71 -123q-89 -149 -220 -153h-11q-105 0 -197 60q-118 76 -198 76h-6q-88 -3 -159 -96z" />
<glyph unicode="&#x2013;" horiz-adv-x="1024" d="M205 512v205h614v-205h-614z" />
<glyph unicode="&#x2014;" horiz-adv-x="2048" d="M205 512v205h1638v-205h-1638z" />
<glyph unicode="&#x2018;" horiz-adv-x="631" d="M0 1611h266l163 -244h-117z" />
<glyph unicode="&#x2019;" horiz-adv-x="392" d="M0 1088v550h201l-116 -550h-85z" />
<glyph unicode="&#x201c;" horiz-adv-x="788" d="M0 1088v550h201l-116 -550h-85zM327 1088v550h201l-117 -550h-84z" />
<glyph unicode="&#x201d;" horiz-adv-x="788" d="M0 1088v550h201l-116 -550h-85zM327 1088v550h201l-117 -550h-84z" />
<glyph unicode="&#x2026;" horiz-adv-x="1359" d="M0 131q0 54 38.5 92.5t92.5 38.5t92.5 -38.5t38.5 -92.5t-38.5 -92.5t-92.5 -38.5t-92.5 38.5t-38.5 92.5zM453 131q0 54 38.5 92.5t92.5 38.5t92.5 -38.5t38.5 -92.5t-38.5 -92.5t-92.5 -38.5t-92.5 38.5t-38.5 92.5zM906 131q0 54 38.5 92.5t92.5 38.5t92.5 -38.5 t38.5 -92.5t-38 -92.5t-93 -38.5q-54 0 -92.5 38.5t-38.5 92.5z" />
<glyph unicode="&#x2039;" horiz-adv-x="1243" d="M0 548l983 571v-173l-688 -398l688 -399v-173z" />
<glyph unicode="&#x203a;" horiz-adv-x="1127" d="M0 -24v173l688 399l-688 398v173l983 -571z" />
<glyph unicode="&#x2122;" horiz-adv-x="2979" d="M-43 1418v194h1006v-194h-390v-1418h-222v1418h-394zM1134 0l70 1604h176l548 -1155l548 1155h177l70 -1604h-223l-39 1131l-508 -1075h-49l-508 1075l-40 -1131h-222z" />
<glyph unicode="&#xe000;" horiz-adv-x="1095" d="M0 1095h1095v-1095h-1095v1095z" />
<glyph unicode="&#xfb01;" horiz-adv-x="1143" d="M0 0v1309q0 329 411 329q27 0 56 -1l24 -180q-59 8 -102 7q-92 0 -133 -38q-42 -39 -43 -133v-201h264v-178h-264v-914h-213zM651 1508q0 54 38.5 92t92.5 38t92.5 -38t38.5 -92t-38.5 -93t-92.5 -39t-92.5 39t-38.5 93zM675 0v1093h213v-1093h-213z" />
<glyph unicode="&#xfb02;" horiz-adv-x="1095" d="M0 0v1309q0 329 411 329q27 0 56 -1l24 -180q-59 8 -102 7q-92 0 -133 -38q-42 -39 -43 -133v-201h264v-178h-264v-914h-213zM651 0v1638h213v-1638h-213z" />
<glyph unicode="&#xfb03;" horiz-adv-x="1794" d="M0 0v1309q0 329 411 329q27 0 56 -1l24 -180q-59 8 -102 7q-92 0 -133 -38q-42 -39 -43 -133v-201h264v-178h-264v-914h-213zM651 0v1309q0 329 411 329q27 0 56 -1l24 -180q-59 8 -102 7q-92 0 -133 -38q-42 -39 -43 -133v-201h264v-178h-264v-914h-213zM1302 1508 q0 54 38 92t92 38t93 -38t39 -92t-38.5 -93t-93.5 -39q-54 0 -92 39t-38 93zM1326 0v1093h213v-1093h-213z" />
<glyph unicode="&#xfb04;" horiz-adv-x="1746" d="M0 0v1309q0 329 411 329q27 0 56 -1l24 -180q-59 8 -102 7q-92 0 -133 -38q-42 -39 -43 -133v-201h264v-178h-264v-914h-213zM651 0v1309q0 329 411 329q27 0 56 -1l24 -180q-59 8 -102 7q-92 0 -133 -38q-42 -39 -43 -133v-201h264v-178h-264v-914h-213zM1302 0v1638 h213v-1638h-213z" />
</font>
</defs>
</svg>
